#TITLE:Rise;
#SUBTITLE:- Safri Duo;
#ARTIST:Unknown artist;
#TITLETRANSLIT:;
#SUBTITLETRANSLIT:;
#ARTISTTRANSLIT:;
#CREDIT:;
#BANNER:;
#BACKGROUND:;
#LYRICSPATH:;
#CDTITLE:;
#MUSIC:Safari Duo - Rise.mp3;
#OFFSET:0.000;
#SAMPLESTART:100.000;
#SAMPLELENGTH:12.000;
#SELECTABLE:YES;
#BPMS:0.000=276.061;
#STOPS:;
#BGCHANGES:;
// cache tags:
#FIRSTBEAT:1.500;
#LASTBEAT:1972.000;
#SONGFILENAME:Songs/Music V.I.P ^_^/Rise - Safri Duo/Safari Duo - Rise.sm;
#HASMUSIC:1;
#HASBANNER:0;
#MUSICLENGTH:433.301;
// end cache tags

//---------------dance-single - ----------------
#NOTES:
     dance-single:
     :
     Easy:
     1:
     0.344,1.000,0.685,0.000,0.012,746.000,297.000,0.000,0.000,0.000:
0000
0000
0000
0110
0000
0011
1100
0010
,
0000
1000
0100
0001
0000
1000
0100
0010
,
0001
1010
0101
0010
0000
0011
1100
0010
,
0000
1000
0100
0001
0000
1000
0100
0010
,
0001
1010
0101
0010
0000
0011
1100
0010
,
0000
1000
0100
0001
0000
1000
0100
0010
,
0001
1010
0101
0010
0000
0011
1100
0010
,
0000
1000
0100
0001
0000
1000
0100
0010
,
0001
1010
0101
0010
0000
0011
1100
0010
,
0000
1000
0100
0001
0000
1000
0100
0010
,
0001
1010
0101
0010
0000
0011
1100
0010
,
0000
1000
0100
0001
0000
1000
0100
0010
,
0001
1010
0101
0010
0000
0011
1100
0010
,
0000
1000
0100
0001
0000
1000
0100
0010
,
0001
1010
0101
0010
0000
0011
1100
0010
,
0000
1010
0101
0000
0010
0000
0000
0110
,
0000
1010
0101
0011
0000
1100
0011
1000
,
0000
1000
0100
0001
0000
1000
0100
0011
,
0100
1010
0101
0010
0000
0101
1010
0011
,
0000
1000
0100
0001
0000
1000
0100
0011
,
0100
1010
0101
0010
0000
0101
1010
0011
,
0000
1000
0100
0001
0000
1000
0100
0011
,
0100
1010
0101
0010
0000
0101
1010
0011
,
0000
1010
0100
0011
0100
1000
0100
1001
,
0000
1010
0101
0010
0000
0101
1010
0011
,
0000
1000
0100
0011
0000
1000
0100
0011
,
0100
1010
0101
0010
0000
0101
1010
0011
,
0000
1000
0100
0001
0000
1000
0100
0011
,
0000
1010
0101
0010
0000
0101
1010
0011
,
0000
1000
0100
0011
0000
1000
0100
0011
,
0100
1010
0101
0010
0000
0101
1010
0000
,
0000
1010
0101
0000
1100
1010
0101
0011
,
0000
1010
0101
1001
0000
1000
0100
1010
,
0000
1000
0100
0011
0100
1000
0100
1010
,
0000
0000
1000
0100
0010
0000
0101
0000
0000
0000
0100
0000
1000
0000
0011
0000
,
0100
0010
0001
1010
0000
0010
0100
0011
,
0000
0100
1000
0101
0000
0100
0010
1001
,
0000
0010
0001
1010
0000
0100
1000
0110
,
0000
0010
0001
1010
0000
0100
0010
0101
,
0000
1010
0100
0011
1100
0010
0001
1100
,
0000
0100
0010
1001
0000
0010
0100
0011
,
0000
1010
0001
0010
0100
0010
0100
1010
,
0000
0000
0100
0010
0001
0000
1010
0000
0000
0000
0010
0000
0001
0000
1100
0000
,
0010
0001
0010
1001
0000
0100
1000
0110
,
0000
1000
0100
0011
0000
1000
0100
1010
,
0000
0001
0010
1100
0000
0001
0010
0101
,
0010
0100
0010
0101
0000
0100
0010
1100
,
0000
1100
0010
0100
1010
0100
0010
0101
,
0000
0100
0010
0101
0000
0100
0010
1100
,
0000
0010
0100
1010
0100
0010
0001
1100
,
0000
0000
0100
0010
0001
0000
1010
0000
0000
0000
0100
0000
0010
0000
0101
0000
,
1000
0100
0010
0101
0000
0001
0010
1100
,
0000
0010
0100
1010
0000
0100
0010
0101
,
0000
0100
0010
1100
0000
0100
0010
1100
,
0000
0010
0001
0110
0000
0100
0010
0101
,
0000
1010
0100
0011
1100
0001
0010
0101
,
0000
0010
0100
1010
0000
0100
1000
0101
,
0000
0100
0010
0101
0010
0100
1000
0110
,
0000
0000
1000
0100
0010
0000
0101
0000
0010
0000
0001
0000
0100
0000
1010
0000
,
0100
0010
0100
0011
0000
0010
0100
1010
,
0000
0100
0010
0101
0000
0001
0010
1100
,
0000
0001
0010
1100
0000
0100
0010
0101
,
0000
0100
0010
0101
0000
0010
0100
1010
,
0000
0100
0010
0101
1010
0100
0010
1100
,
0000
0100
0010
0101
0000
0100
1000
0101
,
0000
0010
0100
1010
0100
0010
0001
0110
,
0000
0000
0010
0100
1000
0000
0101
0000
0000
0000
0100
0000
1000
0000
0011
0000
,
0100
1010
0100
0011
0000
0001
0010
0101
,
0000
0100
0001
0110
0000
0010
0100
1010
,
0000
0010
0100
0011
0100
0010
0100
1010
,
0000
0000
0001
0010
0100
0000
1010
0000
0000
0000
0100
0000
0010
0000
0101
0000
,
0010
0100
1000
0011
0000
0010
0001
1100
,
0000
0001
1010
0101
0000
0010
0101
1010
,
0000
0010
0100
1010
0001
0010
0100
0011
,
0000
0000
1000
0100
0010
0000
1100
0000
0000
0000
0010
0000
0100
0000
0011
0000
,
0100
0001
0010
1100
0000
1000
0100
1010
,
0000
0100
0011
1100
0000
1000
0100
0011
,
0000
0100
0010
0101
1000
0100
0010
1100
,
0000
0000
0001
0000
0010
0000
1100
0000
0001
0010
0100
0000
1010
0000
0100
0010
,
0001
0000
1100
0000
0010
0000
1100
0000
0010
0100
1000
0000
0100
0000
1010
0000
,
0000
0010
0000
1001
0010
0000
1001
0110
,
0000
1001
0000
0000
0100
0000
0010
0001
,
0000
0001
0000
1001
1001
0000
1001
0110
,
0000
1001
0000
0000
0100
0000
0010
0101
,
0000
0001
0000
1001
1001
0000
1001
0110
,
0000
1001
0000
0000
0100
0000
0010
0001
,
0000
0001
0000
1001
1001
0000
1001
0110
,
0000
1001
0000
0000
0100
0000
0010
0101
,
0000
0001
0000
1001
1001
0000
1001
0110
,
0000
1001
0000
0000
0100
0000
0010
0001
,
0000
0000
0000
1001
1001
0000
1001
0110
,
0000
1001
0000
0000
0100
0000
0010
0101
,
0000
0000
0000
1001
1001
0000
1001
0110
,
0000
1001
0000
0000
0100
0000
0010
0001
,
0000
0000
0000
1001
1001
0000
1001
0110
,
0000
1001
0000
0000
1001
0000
1001
1001
,
0000
0100
0010
1001
0000
0000
0000
0000
,
0000
0000
0000
0000
,
0000
0000
0000
0000
,
0000
0000
0000
0000
,
0000
0000
1000
0100
0000
0010
0000
0001
,
0000
0000
0010
0100
0000
1000
0000
0100
,
0000
0000
0100
0010
0000
0010
0000
1000
,
0000
0000
0010
0100
0000
0100
0000
0010
,
0000
0000
0000
0011
0000
0010
0000
0010
,
0000
0110
0000
0100
0000
0100
0000
1001
,
0000
0110
0000
1100
0000
0100
0000
0100
,
0000
0110
0000
0010
0000
0010
0000
0011
,
0000
1001
0000
0110
0000
0100
0000
0100
,
0000
1100
0000
1000
0000
1000
0000
0100
,
0000
0011
0000
1100
0000
0100
0000
0100
,
0000
0101
0000
0001
0000
0001
0000
0011
,
0000
0010
0000
1100
0000
1000
0000
1000
,
0000
1010
0000
0010
0000
0010
0000
0011
,
0000
1100
0000
0011
0000
0001
0000
0001
,
0000
0101
0000
0100
0000
0100
0000
0110
,
0000
0011
0000
1010
0000
1000
0000
1000
,
0000
1100
0000
0100
0000
0100
0000
1010
,
0000
0101
0000
1010
0000
0010
0000
0010
,
0000
1001
0000
0010
0000
0010
0000
0110
,
0000
0000
0000
1001
0000
0010
0100
1000
,
0000
1100
0001
1000
0000
0100
0001
1010
,
0100
1000
0000
0101
0000
0100
1000
0010
,
0000
1100
0000
0100
0000
0010
0001
1010
,
0100
1000
0000
0101
0000
0010
0100
1000
,
0000
0011
0000
0100
0000
0010
1000
0011
,
0100
0010
0101
1010
0000
0100
0010
0001
,
0000
1100
0000
0100
1010
0000
0001
1010
,
0100
0010
0000
1100
0000
0100
0010
0001
,
0000
1100
0000
0100
0000
0010
0001
1010
,
0100
1000
0000
0101
0000
0010
0100
1000
,
0000
0110
0000
0010
0000
1000
0100
1010
,
0100
1000
0000
1010
0000
0000
0000
0000
,
0000
0000
0000
0000
,
0000
0000
0000
0000
,
0000
0000
0000
0000
,
0000
0000
0000
0000
,
0000
0000
0000
0000
,
0000
0000
0000
0000
,
0000
0000
0000
0000
,
0000
0000
0000
0000
,
0000
0000
0000
0000
,
0000
0000
0000
0000
,
0000
0000
0000
0000
,
0000
0000
0000
0000
,
0000
0000
0000
0000
,
0000
0000
0000
0000
,
0000
0000
0000
0000
,
0000
0000
0000
0000
,
0000
0000
0000
0000
,
0000
0000
0000
0000
,
0000
0000
0000
0000
,
0000
0000
0000
0000
,
0000
0000
0000
0000
,
0000
0000
0000
0000
,
0000
0000
0000
0000
,
0000
0000
0000
0000
,
0000
0000
0000
0000
,
0000
0000
0000
0000
,
0000
0000
0000
0000
,
0000
0000
0000
0000
,
0000
0000
0000
0000
,
0000
0000
0000
0000
,
0000
0000
0000
0000
,
0000
0000
0000
0000
,
0000
0000
0000
0000
,
0000
0000
0000
0000
,
0000
0000
0000
0000
,
0000
0000
0000
0000
,
0000
0000
0000
0000
,
0000
0000
0000
0000
,
0000
0000
0000
0000
,
0000
0000
0000
0000
,
0000
0000
0000
0000
,
0000
0000
0000
0000
,
0000
0000
0000
0000
,
0000
0000
0000
0000
,
0000
0000
0000
0000
,
0000
0000
0000
0000
,
0000
0000
0000
0000
,
0000
0000
0000
0000
,
0000
0000
0000
0000
,
0000
0000
0000
0000
,
0000
0000
0000
0000
,
0000
0000
0000
0000
,
0000
0000
0000
0000
,
0000
0000
0000
0000
,
0000
0000
0000
0000
,
0000
0000
0000
0000
,
0000
0000
0000
0000
,
0000
0000
0000
0000
,
0000
0000
0000
0000
,
0000
0000
0000
0000
,
0000
0000
0000
0000
,
0000
0000
0000
0000
,
0000
0000
0000
0000
,
0000
0000
0000
0000
,
0000
0000
0000
0000
,
0000
0000
0000
0000
,
0000
0000
0000
0000
,
0000
0000
0000
0000
,
0000
0000
0000
0000
,
0000
0000
0000
0000
,
0000
0000
0000
0000
,
0000
0000
0000
0000
,
0000
0000
0000
0000
,
0000
0000
0000
0000
,
0000
0000
0000
0000
,
0000
0000
0000
0000
,
0000
0000
0000
0000
,
0000
0000
0000
0000
,
0000
0000
0000
0000
,
0000
0000
0000
0000
,
0000
0000
0000
0000
,
0000
0000
0000
0000
,
0000
0000
0000
0000
,
0000
0000
0000
0000
,
0000
0000
0000
0000
,
0000
0000
0000
0000
,
0000
0000
0000
0000
,
0000
0000
0000
0000
,
0000
0000
0000
0000
,
0000
0000
0000
0000
,
0000
0000
0000
0000
,
0000
0000
0000
0000
,
0000
0000
0000
0000
,
0000
0000
0000
0000
,
0000
0000
0000
0000
,
0000
0000
0000
0000
,
0000
0000
0000
0000
,
0000
0000
0000
0000
,
0000
0000
0000
0000
,
0000
0000
0000
0000
,
0000
0000
0000
0000
,
0000
0000
0000
0000
,
0000
0000
0000
0000
,
0000
0000
0000
0000
,
0000
0000
0000
0000
,
0000
0000
0000
0000
,
0000
0000
0000
0000
,
0000
0000
0000
0000
,
0000
0000
0000
0000
,
0000
0000
0000
0000
,
0000
0000
0000
0000
,
0000
0000
0000
0000
,
0000
0000
0000
0000
,
0000
0000
0000
0000
,
0000
0000
0000
0000
,
0000
0000
0000
0000
,
0000
0000
0000
0000
,
0000
0000
0000
0000
,
0000
0000
0000
0000
,
0000
0000
0000
0000
,
0000
0000
0000
0000
,
0000
0000
0000
0000
,
0000
0000
0000
0000
,
0000
0000
0000
0000
,
0000
0000
0000
0000
,
0000
0000
0000
0000
,
0000
0000
0000
0000
,
0000
0000
0000
0000
,
0000
0000
0000
0000
,
0000
0000
0000
0000
,
0000
0000
0000
0000
,
0000
0000
0000
0000
,
0000
0000
0000
0000
,
0000
0000
0000
0000
,
0000
0000
0000
0000
,
0000
0000
0000
0000
,
0000
0000
0000
0000
,
0000
0000
0000
0000
,
0000
0000
0000
0000
,
0000
0000
0000
0000
,
0000
0000
0000
0000
,
0000
0000
0000
0000
,
0000
0000
0000
0000
,
0000
0000
0000
0000
,
0000
0000
0000
0000
,
0000
0000
0000
0000
,
0000
0000
0000
0000
,
0000
0000
0000
0000
,
0000
0000
0000
0000
,
0000
0000
0000
0000
,
0000
0000
0000
0000
,
0000
0000
0000
0000
,
0000
0000
0000
0000
,
0000
0000
0000
0000
,
0000
0000
0000
0000
,
0000
0000
0000
0000
,
0000
0000
0000
0000
,
0000
0000
0000
0000
,
0000
0000
0000
0000
,
0000
0000
0000
0000
,
0000
0000
0000
0000
,
0000
0000
0000
0000
,
0000
0000
0000
0000
,
0000
0000
0000
0000
,
0000
0000
0000
0000
,
0000
0000
0000
0000
,
0000
0000
0000
0000
,
0000
0000
0000
0000
,
0000
0000
0000
0000
,
0000
0000
0000
0000
,
0000
0000
0000
0000
,
0000
0000
0000
0000
,
0000
0000
0000
0000
,
0000
0000
0000
0000
,
0000
0000
0000
0000
,
0000
0000
0000
0000
,
0000
0000
0000
0000
,
0000
0000
0000
0000
,
0000
0000
0000
0000
,
0000
0000
0000
0000
,
0000
0000
0000
0000
,
0000
0000
0000
0000
,
0000
0000
0000
0000
,
0000
0000
0000
0000
,
0000
0000
0000
0000
,
0000
0000
0000
0000
,
0000
0000
0000
0000
,
0000
0000
0000
0000
,
0000
0000
0000
0000
,
0000
0000
0000
0000
,
0000
0000
0000
0000
,
0000
0000
0000
0000
,
0000
0000
0000
0000
,
0000
0000
0000
0000
,
0000
0000
0000
0000
,
0000
0000
0000
0000
,
0000
0000
0000
0000
,
0000
0000
0000
0000
,
0000
0000
0000
0000
,
0000
0000
0000
0000
,
0000
0000
0000
0000
,
0000
0000
0000
0000
,
0000
0000
0000
0000
,
0000
0000
0000
0000
,
0000
0000
0000
0000
,
0000
0000
0000
0000
,
0000
0000
0000
0000
,
0000
0000
0000
0000
,
0000
0000
0000
0000
,
0000
0000
0000
0000
,
0000
0000
0000
0000
,
0000
0000
0000
0000
,
0000
0000
0000
0000
,
0000
0000
0000
0000
,
0000
0000
0000
0000
,
0000
0000
0000
0000
,
0000
0000
0000
0000
,
0000
0000
0000
0000
,
0000
0000
0000
0000
,
0000
0000
0000
0000
,
0000
0000
0000
0000
,
0000
0000
0000
0000
,
0000
0000
0000
0000
,
0000
0000
0000
0000
,
0000
0000
0000
0000
,
0000
0000
0000
0000
,
0000
0000
0000
0000
,
0000
0000
0000
0000
,
0000
0000
0000
0000
,
0000
0000
0000
0000
,
0000
0000
0000
0000
,
0000
0000
0000
0000
,
0000
0000
0000
0000
,
0000
0000
0000
0000
,
0000
0000
0000
0000
,
0000
0000
0000
0000
,
0000
0000
0000
0000
,
0000
0000
0000
0000
,
0000
0000
0000
0000
,
0000
0000
0000
0000
,
0000
0000
0000
0000
,
0000
0000
0000
0000
,
0000
0000
0000
0000
,
0000
0000
0000
0000
,
0000
0000
0000
0000
,
0000
0000
0000
0000
,
0000
0000
0000
0000
,
0000
0000
0000
0000
,
0000
0000
0000
0000
,
0000
0000
0000
0000
,
0000
0000
0000
0000
,
0000
0000
0000
0000
,
0000
0000
0000
0000
,
0000
0000
0000
0000
,
0000
0000
0000
0000
,
0000
0000
0000
0000
,
0000
0000
0000
0000
,
0000
0000
0000
0000
,
0000
0000
0000
0000
,
0000
0000
0000
0000
,
0000
0000
0000
0000
,
0000
0000
0000
0000
,
0000
0000
0000
0000
,
0000
0000
0000
0000
,
0000
0000
0000
0000
,
0000
0000
0000
0000
,
0000
0000
0000
0000
,
0000
0000
0000
0000
,
0000
0000
0000
0000
,
0000
0000
0000
0000
,
0000
0000
0000
0000
,
0000
0000
0000
0000
,
0000
0000
0000
0000
,
0000
0000
0000
0000
,
0000
0000
0000
0000
,
0000
0000
0000
0000
,
0000
0000
0000
0000
,
0000
0000
0000
0000
,
0000
0000
0000
0000
,
0000
0000
0000
0000
,
0000
0000
0000
0000
,
0000
0000
0000
0000
,
0000
0000
0000
0000
,
0000
0000
0000
0000
,
0000
0000
0000
0000
,
0000
0000
0000
0000
,
0000
0000
0000
0000
,
0000
0000
0000
0000
,
0000
0000
0000
0000
,
0000
0000
0000
0000
,
0000
0000
0000
0000
,
0000
0000
0000
0000
,
0000
0000
0000
0000
,
0000
0000
0000
0000
,
0000
0000
0000
0000
,
0000
0000
0000
0000
,
0000
0000
0000
0000
,
0000
0000
0000
0000
,
0000
0000
0000
0000
,
0000
0000
0000
0000
,
0000
0000
0000
0000
,
0000
0000
0000
0000
,
0000
0000
0000
0000
,
0000
0000
0000
0000
,
0000
0000
0000
0000
,
0000
0000
0000
0000
,
0000
0000
0000
0000
,
0000
0000
0000
0000
,
0000
0000
0000
0000
,
0000
0000
0000
0000
,
0000
0000
0000
0000
,
0000
0000
0000
0000
,
0000
0000
0000
0000
,
0000
0000
0000
0000
,
0000
0000
0000
0000
,
0000
0000
0000
0000
,
0000
0000
0000
0000
,
0000
0000
0000
0000
,
0000
0000
0000
0000
,
0000
0000
0000
0000
,
0000
0000
0000
0000
,
0000
0000
0000
0000
,
0000
0000
0000
0000
,
0000
0000
0000
0000
,
0000
0000
0000
0000
,
0000
0000
0000
0000
,
0000
0000
0000
0000
,
0000
0000
0000
0000
,
0000
0000
0000
0000
,
0000
0000
0000
0000
,
0000
0000
0000
0000
,
0000
0000
0000
0000
,
0000
0000
0000
0000
,
0000
0000
0000
0000
,
0000
0000
0000
0000
,
0000
0000
0000
0000
,
0000
0000
0000
0000
,
0000
0000
0000
0000
,
0000
0000
0000
0000
,
0000
0000
0000
0000
,
0000
0000
0000
0000
,
0000
0000
0000
0000
,
0000
0000
0000
0000
,
0000
0000
0000
0000
,
0000
0000
0000
0000
,
0000
0000
0000
0000
,
0000
0000
0000
0000
,
0000
0000
0000
0000
,
0000
0000
0000
0000
,
0000
0000
0000
0000
,
0000
0000
0000
0000
,
0000
0000
0000
0000
,
0000
0000
0000
0000
,
0000
0000
0000
0000
,
0000
0000
0000
0000
,
0000
0000
0000
0000
,
0000
0000
0000
0000
,
0000
0000
0000
0000
,
0000
0000
0000
0000
,
0000
0000
0000
1100
0000
0100
0010
0000
,
0011
0000
0000
0000
;
